福利发放鸡
论坛版主
论坛版主
  • 注册日期2017-03-24
  • 发帖数476
  • 影币6545枚
  • 魔力值1356点
  • 蓝光币2克拉
  • 社区居民
  • 忠实会员
  • 喜欢达人
  • 原创写手
阅读:354回复:6

[其他]诗歌忆清明.20190405.REPEAT.1080i.CCTV3.HDTV.H.264.DD5.1-FLTTH.ts 6.01G

楼主#
更多 发布于:2019-04-14 18:53

图片:SS_00001.jpg

图片:SS_00002.jpg

图片:SS_00003.jpg

图片:SS_00004.jpg

图片:SS_00005.jpg

图片:SS_00006.jpg



General
ID                                       : 1 (0x1)
Complete name                            : 诗歌忆清明.20190405.REPEAT.1080i.CCTV3.HDTV.H.264.DD5.1-FLTTH.ts
Format                                   : MPEG-TS
File size                                : 6.01 GiB
Duration                                 : 1 h 36 min
Overall bit rate mode                    : Variable
Overall bit rate                         : 8 952 kb/s
 
Video
ID                                       : 256 (0x100)
Menu ID                                  : 1 (0x1)
Format                                   : AVC
Format/Info                              : Advanced Video Codec
Format profile                           : High@L4
Format settings                          : CABAC / 3 Ref Frames
Format settings, CABAC                   : Yes
Format settings, RefFrames               : 3 frames
Format settings, GOP                     : M=3, N=15
Codec ID                                 : 27
Duration                                 : 1 h 36 min
Bit rate mode                            : Constant
Bit rate                                 : 7 800 kb/s
Width                                    : 1 920 pixels
Height                                   : 1 080 pixels
Display aspect ratio                     : 16:9
Frame rate                               : 25.000 FPS
Color space                              : YUV
Chroma subsampling                       : 4:2:0
Bit depth                                : 8 bits
Scan type                                : Interlaced
Scan type, store method                  : Separated fields
Scan order                               : Top Field First
Bits/(Pixel*Frame)                       : 0.150
Stream size                              : 5.41 GiB (90%)
Color range                              : Limited
Color primaries                          : BT.709
Transfer characteristics                 : BT.709
Matrix coefficients                      : BT.709
 
Audio
ID                                       : 257 (0x101)
Menu ID                                  : 1 (0x1)
Format                                   : AC-3
Format/Info                              : Audio Coding 3
Commercial name                          : Dolby Digital
Codec ID                                 : 129
Duration                                 : 1 h 36 min
Bit rate mode                            : Constant
Bit rate                                 : 448 kb/s
Channel(s)                               : 6 channels
Channel layout                           : L R C LFE Ls Rs
Sampling rate                            : 48.0 kHz
Frame rate                               : 31.250 FPS (1536 SPF)
Bit depth                                : 16 bits
Compression mode                         : Lossy
Delay relative to video                  : -206 ms
Stream size                              : 308 MiB (5%)
Language                                 : English
Service kind                             : Complete Main
 
Menu
ID                                       : 4096 (0x1000)
Menu ID                                  : 1 (0x1)
Duration                                 : 1 h 36 min
List                                     : 256 (0x100) (AVC) / 257 (0x101) (AC-3, English)
Language                                 :  / English
Service name                             : CCTV3
Service provider                         : BGCTV
Service type                             : user defined
节目介绍:

    春回大地,风清景明。为弘扬和传承民族传统文化,央视综艺频道于4月5日19:30推出清明节特别节目《诗歌忆清明》。节目以“诗说清明”情景剧为串联,通过契合主题的文艺节目、独具匠心的表现形式,从踏青春游、寄托爱情、祭祖思乡、缅怀英烈等四个方面,带领观众探寻诗意之中的别样清明,共赏行走在诗词中的清明文化。
    水墨丹青徐徐展开,民俗佳景尽入眼帘。节目以动态版《清明上河图》延续情景舞蹈震撼开场,为《诗歌忆清明》的文艺盛宴拉开序幕。节目组以厚重的历史和艺术底蕴精心编排,描绘清明民俗,展示宋韵风貌,讲述传世名画背后的传统文化,可谓是“一朝步入画卷,一日梦回千年”。
    节目组还特别邀请文化学者纪连海出演情景剧《诗说清明》,依照从古至今的时间顺序,模拟先生授课的方式,将《苏堤清明即事》、《题都城南庄》、《清明日对酒》、《蝶恋花?答李淑一》等诗词一一带上舞台,让观众能更深层次地感受传统节日与传统文化在后辈中的传承与延续。
    最流行的巨幅纱幕投影,定制化的高清舞美影像,浪漫唯美的舞台设计……此次《诗歌忆清明》在视觉设计上可谓是下足了功夫。不仅将传统文化的精粹融入到现代技术当中,以机械升降的巨幅纱幕投影尽力拓展舞台空间意境,营造虚拟逼真场景,进行剧情式、场景式的表达。更是针对不同的节目内容、主题风格和表演形式,让古典诗词的韵味与浪漫唯美的意境相融合,呈现差异化的创作方式。
    此外,本次节目还邀请到众多明星嘉宾前来助阵,王晰用《故乡的云》表达思乡之情,扎西顿珠用《最美的春天》赞美春光;陆虎以《雪落下的声音》和简弘亦一曲《不染》再现影视金曲;还有阿兰演绎《桃花缘》和诗以歌,水木年华以《一生有你》再现经典;更有杨洪基、魏松、刘和刚、金润吉、斯琴格日乐、云飞、金美儿等众多老中青艺术家倾情演绎,带领观众在“诗歌忆清明”的氛围中,感受丰富多样的清明文化。
    樱花杏雨寒烟墓,白酒青衣烈士魂。在新中国建国70周年之际,为了感恩、致敬那些为国奉献、为民牺牲的英雄烈士,节目组以三位英雄人物的真实事迹为切入点,用“情景再现+故事讲述+主题表演”的形式致敬英雄群体,让观众在追思中缅怀,在感动中铭记。
    在讲述人梁植的深情讲述中,观众了解到抗战烈士李云鹏全连为抵御日军壮烈牺牲的英雄事迹,“糖丸爷爷”顾方舟为研制小儿麻痹症疫苗竟用自己的孩子试药的感人壮举,以及基层民警颜曰春为解救被歹徒挟持的小女孩壮烈殉职的动人故事。节目组还邀请到几位英雄烈士的亲友,进行现场采访,使观众沉浸在感恩英雄和追思先烈的浓重氛围当中。无论是革命战士、科研人员亦或是基层民警,他们为了民族解放而牺牲、为了国家繁荣安定而奉献、为了百姓安居乐业而付出,这些新中国的缔造者、建设者和守护者们,值得我们通过这一方饱含敬仰之情的舞台,向他们致以崇高的敬意!
    歌舞悠扬,共绘清明意韵;诗词顿挫,传承清明文化。4月5日19:30,央视综艺频道邀你一起《诗歌忆清明》。



下载地址(直播版+重播版双版本 推荐下载重播版):
https://pan.baidu.com/s/1c_-Rf1KeJvCH97zVPtsHTg 提取码:n24a

最新喜欢:

zyyzwyfzyyzwy...
liguochuan
精灵王
精灵王
  • 注册日期2015-10-03
  • 发帖数863
  • 影币3337枚
  • 魔力值2035点
  • 蓝光币48克拉
  • 社区居民
  • 忠实会员
沙发#
发布于:2019-04-14 21:04
清明是好时节
zyyzwyf
精灵王
精灵王
  • 注册日期2017-05-17
  • 发帖数1483
  • 影币2169枚
  • 魔力值637点
  • 蓝光币768克拉
  • 社区居民
  • 忠实会员
板凳#
发布于:2019-04-16 01:14
谢谢达人分享好资源。
dszsdyx
精灵王
精灵王
  • 注册日期2016-09-22
  • 发帖数900
  • 影币5036枚
  • 魔力值1816点
  • 蓝光币551克拉
  • 社区居民
  • 忠实会员
地板#
发布于:2019-04-16 01:16
    春回大地,风清景明。为弘扬和传承民族传统文化,央视综艺频道于4月5日19:30推出清明节特别节目《诗歌忆清明》。节目以“诗说清明”情景剧为串联,通过契合主题的文艺节目、独具匠心的表现形式,从踏青春游、寄托爱情、祭祖思乡、缅怀英烈等四个方面,带领观众探寻诗意之中的别样清明,共赏行走在诗词中的清明文化。
    水墨丹青徐徐展开,民俗佳景尽入眼帘。节目以动态版《清明上河图》延续情景舞蹈震撼开场,为《诗歌忆清明》的文艺盛宴拉开序幕。节目组以厚重的历史和艺术底蕴精心编排,描绘清明民俗,展示宋韵风貌,讲述传世名画背后的传统文化,可谓是“一朝步入画卷,一日梦回千年”。
    节目组还特别邀请文化学者纪连海出演情景剧《诗说清明》,依照从古至今的时间顺序,模拟先生授课的方式,将《苏堤清明即事》、《题都城南庄》、《清明日对酒》、《蝶恋花?答李淑一》等诗词一一带上舞台,让观众能更深层次地感受传统节日与传统文化在后辈中的传承与延续。
    最流行的巨幅纱幕投影,定制化的高清舞美影像,浪漫唯美的舞台设计……此次《诗歌忆清明》在视觉设计上可谓是下足了功夫。不仅将传统文化的精粹融入到现代技术当中,以机械升降的巨幅纱幕投影尽力拓展舞台空间意境,营造虚拟逼真场景,进行剧情式、场景式的表达。更是针对不同的节目内容、主题风格和表演形式,让古典诗词的韵味与浪漫唯美的意境相融合,呈现差异化的创作方式。
    此外,本次节目还邀请到众多明星嘉宾前来助阵,王晰用《故乡的云》表达思乡之情,扎西顿珠用《最美的春天》赞美春光;陆虎以《雪落下的声音》和简弘亦一曲《不染》再现影视金曲;还有阿兰演绎《桃花缘》和诗以歌,水木年华以《一生有你》再现经典;更有杨洪基、魏松、刘和刚、金润吉、斯琴格日乐、云飞、金美儿等众多老中青艺术家倾情演绎,带领观众在“诗歌忆清明”的氛围中,感受丰富多样的清明文化。
    樱花杏雨寒烟墓,白酒青衣烈士魂。在新中国建国70周年之际,为了感恩、致敬那些为国奉献、为民牺牲的英雄烈士,节目组以三位英雄人物的真实事迹为切入点,用“情景再现+故事讲述+主题表演”的形式致敬英雄群体,让观众在追思中缅怀,在感动中铭记。
    在讲述人梁植的深情讲述中,观众了解到抗战烈士李云鹏全连为抵御日军壮烈牺牲的英雄事迹,“糖丸爷爷”顾方舟为研制小儿麻痹症疫苗竟用自己的孩子试药的感人壮举,以及基层民警颜曰春为解救被歹徒挟持的小女孩壮烈殉职的动人故事。节目组还邀请到几位英雄烈士的亲友,进行现场采访,使观众沉浸在感恩英雄和追思先烈的浓重氛围当中。无论是革命战士、科研人员亦或是基层民警,他们为了民族解放而牺牲、为了国家繁荣安定而奉献、为了百姓安居乐业而付出,这些新中国的缔造者、建设者和守护者们,值得我们通过这一方饱含敬仰之情的舞台,向他们致以崇高的敬意!
    歌舞悠扬,共绘清明意韵;诗词顿挫,传承清明文化。4月5日19:30,央视综艺频道邀你一起《诗歌忆清明》。
wsxht
新手
新手
  • 注册日期2019-04-09
  • 发帖数70
  • 影币70枚
  • 魔力值26点
  • 蓝光币18克拉
4楼#
发布于:2019-04-16 08:16
谢谢达人分享好资源。
14le
骑士
骑士
  • 注册日期2016-12-16
  • 发帖数87
  • 影币0枚
  • 魔力值467点
  • 蓝光币0克拉
  • 社区居民
  • 忠实会员
5楼#
发布于:2019-04-16 09:35
谢谢达人分享好资源。
cxy5300
精灵王
精灵王
  • 注册日期2016-11-13
  • 发帖数197
  • 影币0枚
  • 魔力值894点
  • 蓝光币0克拉
  • 社区居民
  • 忠实会员
6楼#
发布于:2019-04-16 17:36
感谢楼主分享!
游客
返回顶部